extratorrent.fileproxy.xyz - The Largest Bittorent SystemLogin   |   Register
Latest Articles
Most searched
Hot torrents
First Cams
View Torrent Info: Beauty and The Beast 2017 720p HD-TS x264-CPG
View Torrent Info: Kong.Skull.Island.2017.CAM.XviD-VAiN
View Torrent Info: The Shack 2017 HDCAM x264-iMLEAVING
View Torrent Info: T2.Trainspotting.2017.CAM.XViD-ETRG
Hot torrents
XVID DIVX
View Torrent Info: Warriors.Gate.2016.BDRip.XviD.AC3-EVO
View Torrent Info: The.House.of.the.Devil.2009.BRRip.XviD-ETRG
View Torrent Info: Prevenge.2016.HDRip.XViD-ETRG
View Torrent Info: Dig.Two.Graves.2014.HDRip.XViD-ETRG
Hot torrents
H264 X264
View Torrent Info: Moana.2016.BluRay.1080p.DTS.AC3.x264-ETRG
View Torrent Info: Assassins.Creed.2016.BluRay.720p.DTS.AC3.x264-ETRG
View Torrent Info: From.a.House.on.Willow.Street.2016.720p.WEBRip.x264.AAC-ETRG
View Torrent Info: Hidden.Figures.2016.720p.BRRip.x264.AAC-ETRG
Hot torrents
BluRay, 4k UHD
View Torrent Info: Hunt for the WinderPeople 2016 Multi  Bluray 1080p x264 DTSHD 5.1 -DDR
View Torrent Info: Bitter Harvest (Holodomor) - Bluray 1080p x264 DTSHD 5.1 -DDR
View Torrent Info: Bad Santa-2 2016 Multi UHD 2160p BluRay HEVC SDR DTSHD 5.1 -DDR
View Torrent Info: The.Chamber.2016.BluRay.1080p.x264.DTSHD5.1-DDR
Hot torrents
Television
View Torrent Info: The.Walking.Dead.S07E15.WEB-DL.x264-FUM[ettv]
View Torrent Info: Into.the.Badlands.S02E02.WEB-DL.x264-FUM[ettv]
View Torrent Info: Time.After.Time.US.S01E05.HDTV.x264-LOL[ettv]
View Torrent Info: Elementary.S05E18.HDTV.x264-LOL[ettv]
View Torrent Info: Dil To Pagal Hai 1997 BluRay 1080P x264 DTSHD 5.1 -DDR
View Torrent Info: Ho Mann Jahaan (2016) TVRIP 1CDRIP x264 AAC [DDR]
View Torrent Info: Trapped (2017) DesiPDVD 1CDRIP x264 AAC [DDR]
View Torrent Info: Fantastic.Beasts.And.Where.To.Find.Them.(2016).1080p.BDRip.Dual.Audio.Org.BD.{Hindi.5.1 Eng.5.1}.-~{DOOMSDAY}~-
30s
Chat
To add new messages please Login or Register for FREE
Warning! Stop Government from Tracking Your Torrenting!
Your Internet Provider and Government can track your torrent activity!  Hide your IP ADDRESS with a VPN!
ExtraTorrent strongly recommends using Trust.Zone VPN to anonymize your torrenting. It's FREE!

HIDE ME NOW
Torrent Description
ddr_logo.png
e0c153c515bd355512547dad5bd3cca5.md.jpg

HQ 1080p Blu-Ray Rip x264

English DTSHD-MA 7.1 Audio
French AC3 5.1 Audio

English/French Subs


SCREENSHOTS
00aec3d237777db19c169f643e4060e5.th.png 0184dea9f00c0a07fd2ff04fa8b6897f.th.png 4bfacc341c3055b5e8bbdc1cb2249b60.th.png e99b172d18f25222a5b7265bd8236208.th.png 6121e23ea7a50e9507a0add15e5eba50.th.png 02ed63a49925bfa8c26c1d9f9f7482a4.th.png 07903957290e5cc1af97ca35002e9b8d.th.png


SPECS

Source: Blu-ray BD50

Format : Matroska
File size : 14.4 GiB
Duration : 2 h 12 min
Overall bit rate : 15.5 Mb/s

Video
Format : AVC
Format/Info : Advanced Video Codec
Format profile : [email protected]
Format settings, CABAC : Yes
Format settings, ReFrames : 4 frames
Codec ID : V_MPEG4/ISO/AVC
Duration : 2 h 12 min
Bit rate : 10.0 Mb/s
Width : 1 920 pixels
Height : 800 pixels
Display aspect ratio : 2.40:1
Frame rate mode : Constant
Frame rate : 23.976 (24000/1001) FPS
Color space : YUV
Chroma subsampling : 4:2:0
Bit depth : 8 bits
Scan type : Progressive
Bits/(Pixel*Frame) : 0.272
Stream size : 9.28 GiB (65%)
Default : Yes
Forced : No
Color range : Limited
Color primaries : BT.709
Transfer characteristics : BT.709
Matrix coefficients : BT.709

Audio #1
Format : DTS
Format/Info : Digital Theater Systems
Format profile : MA / Core
Mode : 16
Format settings, Endianness : Big
Codec ID : A_DTS
Duration : 2 h 12 min
Bit rate mode : Variable / Constant
Bit rate : 4 813 kb/s / 1 509 kb/s
Channel(s) : 8 channels / 6 channels
Channel positions : Front: L C R, Side: L R, Back: L R, LFE / Front: L C R, Side: L R, LFE
Sampling rate : 48.0 kHz
Frame rate : 93.750 FPS (512 spf)
Bit depth : 24 bits
Compression mode : Lossless / Lossy
Stream size : 4.47 GiB (31%)
Language : English
Default : Yes
Forced : No

Audio #2
ID : 3
Format : AC-3
Format/Info : Audio Coding 3
Mode extension : CM (complete main)
Format settings, Endianness : Big
Codec ID : A_AC3
Duration : 2 h 12 min
Bit rate mode : Constant
Bit rate : 640 kb/s
Channel(s) : 6 channels
Channel positions : Front: L C R, Side: L R, LFE
Sampling rate : 48.0 kHz
Frame rate : 31.250 FPS (1536 spf)
Compression mode : Lossy
Stream size : 608 MiB (4%)
Language : French
Default : No
Forced : No

Chapters : YES

SAMPLE Included

A DDR Exclusive Encode

Download The Light Between Oceans (2016) Multi 1080p Blu-Ray x264 DTSHD-MA 7.1 -DDR torrent


Related Torrents


Comments (please add your comment)
1
posted by Site FriendET junkieET loverSuperman (2017-01-10 18:03:17)
Funky_Axl avatarthank you


2
posted by (2017-01-11 14:47:35)
Jono10 avatarthank you





Home - Browse Torrents - Upload Torrent - Stat - Forum - FAQ - Login
extratorrent.fileproxy.xyz is in compliance with copyrights
BitCoin: 12DiyqsWhENahDzdhdYsRrCw8FPQVcCkcm
Can't load ExtraTorrent? Try our official mirrors: etmirror.com - etproxy.com - extratorrentonline.com - extratorrentlive.com
2006-2017 extratorrent.fileproxy.xyz3