extratorrent.fileproxy.xyz - The Largest Bittorent SystemLogin   |   Register
Latest Articles
Most searched
Hot torrents
First Cams
View Torrent Info: Beauty and The Beast 2017 720p HD-TS x264-CPG
View Torrent Info: Kong.Skull.Island.2017.CAM.XviD-VAiN
View Torrent Info: The Shack 2017 HDCAM x264-iMLEAVING
View Torrent Info: T2.Trainspotting.2017.CAM.XViD-ETRG
Hot torrents
XVID DIVX
View Torrent Info: Warriors.Gate.2016.BDRip.XviD.AC3-EVO
View Torrent Info: The.House.of.the.Devil.2009.BRRip.XviD-ETRG
View Torrent Info: Prevenge.2016.HDRip.XViD-ETRG
View Torrent Info: Dig.Two.Graves.2014.HDRip.XViD-ETRG
Hot torrents
H264 X264
View Torrent Info: Moana.2016.BluRay.1080p.DTS.AC3.x264-ETRG
View Torrent Info: Assassins.Creed.2016.BluRay.720p.DTS.AC3.x264-ETRG
View Torrent Info: From.a.House.on.Willow.Street.2016.720p.WEBRip.x264.AAC-ETRG
View Torrent Info: Hidden.Figures.2016.720p.BRRip.x264.AAC-ETRG
Hot torrents
BluRay, 4k UHD
View Torrent Info: Hunt for the WinderPeople 2016 Multi  Bluray 1080p x264 DTSHD 5.1 -DDR
View Torrent Info: Bitter Harvest (Holodomor) - Bluray 1080p x264 DTSHD 5.1 -DDR
View Torrent Info: Bad Santa-2 2016 Multi UHD 2160p BluRay HEVC SDR DTSHD 5.1 -DDR
View Torrent Info: The.Chamber.2016.BluRay.1080p.x264.DTSHD5.1-DDR
Hot torrents
Television
View Torrent Info: The.Walking.Dead.S07E15.WEB-DL.x264-FUM[ettv]
View Torrent Info: Into.the.Badlands.S02E02.WEB-DL.x264-FUM[ettv]
View Torrent Info: Time.After.Time.US.S01E05.HDTV.x264-LOL[ettv]
View Torrent Info: Elementary.S05E18.HDTV.x264-LOL[ettv]
View Torrent Info: Dil To Pagal Hai 1997 BluRay 1080P x264 DTSHD 5.1 -DDR
View Torrent Info: Ho Mann Jahaan (2016) TVRIP 1CDRIP x264 AAC [DDR]
View Torrent Info: Trapped (2017) DesiPDVD 1CDRIP x264 AAC [DDR]
View Torrent Info: Fantastic.Beasts.And.Where.To.Find.Them.(2016).1080p.BDRip.Dual.Audio.Org.BD.{Hindi.5.1 Eng.5.1}.-~{DOOMSDAY}~-
30s
Chat
To add new messages please Login or Register for FREE
Warning! Use a VPN When Downloading Torrents!
Your Internet Provider and Government can track your torrent activity!  Hide your IP ADDRESS with a VPN!
ExtraTorrent strongly recommends using Trust.Zone VPN to anonymize your torrenting. It's FREE!

HIDE ME NOW
Torrent Description
ddr_logo.png
a2e4aa39c5b7cdca3300f8f09ff20fa5.md.jpg

HQ 1080p Blu-Ray Rip x264

English DTSHD-MA 5.1 Audio
French MP3 Stereo Audio

English Subs

SCREENSHOTS
735728121274cc036f65491e1ba17646.th.png dc5e3025c96e892261332ead5bad54b3.th.png eaa3b1ec35d4852a69023be509721a40.th.png 64126cd14cabb934513b8af2fefb5a59.th.png 78a5c2e10ed094116260a1c894a55f50.th.png 3b403e93129ce2263a83d983938cd933.th.png 1fc99cb487a0832e24fcf1647679718e.th.png 9a80c57d4aacd3c6f32ed137c1cf4f74.th.png 2735e59b019f8741d9ccc89cb250531b.th.png

SPECS


Source: Blu-ray
Note: French Audio is from DVD

Format : Matroska
File size : 10.6 GiB
Duration : 2 h 1 min
Overall bit rate : 12.4 Mb/s

Video
Format : AVC
Format/Info : Advanced Video Codec
Format profile : [email protected]
Format settings, CABAC : Yes
Format settings, ReFrames : 5 frames
Codec ID : V_MPEG4/ISO/AVC
Duration : 2 h 1 min
Bit rate : 10 000 kb/s
Width : 1 920 pixels
Height : 1 036 pixels
Display aspect ratio : 1.85:1
Frame rate mode : Constant
Frame rate : 23.976 (24000/1001) FPS
Color space : YUV
Chroma subsampling : 4:2:0
Bit depth : 8 bits
Scan type : Progressive
Bits/(Pixel*Frame) : 0.210
Stream size : 8.49 GiB (80%)
Default : Yes
Forced : No
Color range : Limited
Color primaries : BT.709
Transfer characteristics : BT.709
Matrix coefficients : BT.709

Audio #1
Format : DTS
Format/Info : Digital Theater Systems
Format profile : MA / Core
Mode : 16
Format settings, Endianness : Big
Codec ID : A_DTS
Duration : 2 h 1 min
Bit rate mode : Variable / Constant
Bit rate : 2 269 kb/s / 1 509 kb/s
Channel(s) : 6 channels
Channel positions : Front: L C R, Side: L R, LFE
Sampling rate : 48.0 kHz
Frame rate : 93.750 FPS (512 spf)
Bit depth : 16 bits
Compression mode : Lossless / Lossy
Stream size : 1.93 GiB (18%)
Language : English
Default : No
Forced : No

Audio #2
ID : 5
Format : MPEG Audio
Format version : Version 1
Format profile : Layer 3
Mode : Joint stereo
Mode extension : MS Stereo
Codec ID : A_MPEG/L3
Codec ID/Hint : MP3
Duration : 2 h 1 min
Bit rate mode : Constant
Bit rate : 128 kb/s
Channel(s) : 2 channels
Sampling rate : 44.1 kHz
Frame rate : 38.281 FPS (1152 spf)
Compression mode : Lossy
Stream size : 111 MiB (1%)
Writing library : LAME3.99r
Encoding settings : -m j -V 4 -q 2 -lowpass 17 -b 128
Language : French
Default : Yes
Forced : No


SAMPLE Included

A DDR Exclusive Encode

Download INFERNO (2016) Multi 1080p Blu-Ray x264 DTSHD 5.1 -DDR torrent


Related Torrents


Comments (please add your comment)
1
posted by Site FriendET junkieET loverSuperman (2017-01-11 09:39:12)
Funky_Axl avatarthanx!


2
posted by (2017-01-11 13:02:14)
vkas03 avatarIs it also a Cinevia protected copy???


3
posted by ET junkiemen (2017-01-11 15:41:27)
lophirg avatarDay By Day...................Forget.....That
I Just Hate DDR


4
posted by Site FriendET loverSupermanSunTurtle (2017-01-13 03:39:10)
enigmatic81 avatarThank you. Flawless encode like always


5
posted by (2017-01-30 04:26:26)
Yappu avatarthanks a lot!


6
posted by (2017-02-09 03:07:20)
No avatarGreat, thanks





Home - Browse Torrents - Upload Torrent - Stat - Forum - FAQ - Login
extratorrent.fileproxy.xyz is in compliance with copyrights
BitCoin: 12DiyqsWhENahDzdhdYsRrCw8FPQVcCkcm
Can't load ExtraTorrent? Try our official mirrors: etmirror.com - etproxy.com - extratorrentonline.com - extratorrentlive.com
2006-2017 extratorrent.fileproxy.xyz2